<?xml version="1.0" encoding="UTF-8" standalone="no"?>
<!-- Creator: CorelDRAW -->

<svg
   xml:space="preserve"
   width="67.73333mm"
   height="67.73333mm"
   style="clip-rule:evenodd;fill-rule:evenodd;image-rendering:optimizeQuality;shape-rendering:geometricPrecision;text-rendering:geometricPrecision"
   viewBox="0 0 67.73333 67.73333"
   version="1.1"
   id="svg24"
   sodipodi:docname="favicon_256x256_CIG.svg"
   inkscape:version="1.3.2 (091e20e, 2023-11-25, custom)"
   xmlns:inkscape="http://www.inkscape.org/namespaces/inkscape"
   xmlns:sodipodi="http://sodipodi.sourceforge.net/DTD/sodipodi-0.dtd"
   xmlns="http://www.w3.org/2000/svg"
   xmlns:svg="http://www.w3.org/2000/svg"><sodipodi:namedview
   id="namedview24"
   pagecolor="#ffffff"
   bordercolor="#666666"
   borderopacity="1.0"
   inkscape:showpageshadow="2"
   inkscape:pageopacity="0.0"
   inkscape:pagecheckerboard="0"
   inkscape:deskcolor="#d1d1d1"
   inkscape:document-units="mm"
   inkscape:zoom="0.93806818"
   inkscape:cx="561.25984"
   inkscape:cy="397.09267"
   inkscape:window-width="2560"
   inkscape:window-height="1346"
   inkscape:window-x="-11"
   inkscape:window-y="-11"
   inkscape:window-maximized="1"
   inkscape:current-layer="svg24" />
 <defs
   id="defs23">
  <font
   id="FontID0"
   font-variant="normal"
   style="fill-rule:nonzero"
   font-style="normal"
   font-weight="700"
   horiz-origin-x="0"
   horiz-origin-y="0"
   horiz-adv-x="1024"
   vert-origin-x="512"
   vert-origin-y="768"
   vert-adv-y="1024">
	<font-face
   font-family="Century Gothic"
   id="font-face1">
	</font-face>
   <missing-glyph
   id="missing-glyph1"><path
     d="M0 0z"
     id="path1" /></missing-glyph>
   <glyph
   unicode=" "
   horiz-adv-x="279"
   id="glyph1" />
   <glyph
   unicode="G"
   horiz-adv-x="385"
   id="glyph2"><path
     d="M341.66 275.559l-44.0933 -43.6327c-27.9683,29.5735 -60.4451,44.3201 -97.6606,44.3201 -32.4,0 -59.5274,-10.6953 -81.3821,-32.2465 -21.8582,-21.4744 -32.7839,-47.6072 -32.7839,-78.3288 0,-31.7893 11.3862,-58.7632 34.0052,-80.8482 22.6957,-22.085 50.6641,-33.0874 83.9818,-33.0874 21.6279,0 39.892,4.50843 54.7154,13.6021 14.9002,9.17041 26.8238,23.3831 35.9907,42.7917l-95.368 0 0 58.9202 165.598 0 0.457125 -13.9091c0,-28.8093 -7.4117,-56.0902 -22.3886,-81.9195 -14.9037,-25.8293 -34.2355,-45.545 -57.9257,-59.147 -23.7635,-13.6021 -51.5818,-20.3263 -83.5247,-20.3263 -34.1587,0 -64.6465,7.4117 -91.4703,22.2386 -26.8238,14.8234 -47.9911,35.9907 -63.5787,63.5019 -15.5876,27.4344 -23.3831,57.0812 -23.3831,88.8706 0,43.5594 14.3663,81.4624 43.1756,113.709 34.2355,38.3636 78.7092,57.5453 133.425,57.5453 28.6558,0 55.4796,-5.27612 80.3911,-15.8982 21.0905,-8.9401 41.6472,-24.2974 61.82,-46.1556z"
     id="path2" /></glyph>
   <glyph
   unicode="I"
   horiz-adv-x="128"
   id="glyph3"><path
     d="M33.1642 329.356l62.2038 0 0 -329.356 -62.2038 0 0 329.356z"
     id="path3" /></glyph>
   <glyph
   unicode="C"
   horiz-adv-x="357"
   id="glyph4"><path
     d="M340.286 271.357l-43.863 -41.8775c-29.8806,31.4858 -63.4252,47.2269 -100.717,47.2269 -31.5625,0 -58.0792,-10.7756 -79.6269,-32.25 -21.5512,-21.4709 -32.3267,-47.9876 -32.3267,-79.4734 0,-21.9315 4.73874,-41.4169 14.293,-58.3828 9.55076,-17.0392 23.0761,-30.4145 40.4991,-40.1188 17.4998,-9.7043 36.9084,-14.5198 58.2293,-14.5198 18.1873,0 34.8461,3.36388 49.9766,10.1649 15.0572,6.80104 31.6393,19.105 49.673,37.062l42.5649 -44.3201c-24.3776,-23.767 -47.3804,-40.1956 -69.0049,-49.366 -21.6279,-9.17041 -46.3092,-13.7556 -74.124,-13.7556 -51.1247,0 -93.0789,16.2017 -125.709,48.6785 -32.5535,32.4768 -48.9053,74.0472 -48.9053,124.788 0,32.8606 7.4117,62.0503 22.3154,87.5725 14.8234,25.5257 36.0675,46.0056 63.8055,61.5164 27.6648,15.5143 57.4686,23.3099 89.408,23.3099 27.2041,0 53.3405,-5.73325 78.4823,-17.273 25.1418,-11.463 46.843,-27.8148 65.0303,-48.9821z"
     id="path4" /></glyph>
   <glyph
   unicode="h"
   horiz-adv-x="600"
   id="glyph5"><path
     d="M67.8391 736.328l132.323 0 0 -258.82c26.0101,22.4928 52.3449,39.3218 78.6797,50.487 26.3167,11.3456 52.9942,17.0094 79.9964,17.0094 52.8319,0 97.1681,-18.3442 133.333,-54.8341 30.9885,-31.5115 46.3203,-77.8319 46.3203,-139.177l0 -350.992 -131.331 0 0 232.828c0,61.6703 -2.83189,103.337 -8.65801,125 -6.00649,21.8434 -15.9993,38.1674 -30.1768,48.8456 -14.1595,10.8225 -31.4935,16.1616 -52.3268,16.1616 -27.1645,0 -50.3247,-9.00072 -69.6609,-26.8398 -19.3362,-17.8211 -32.8463,-42.3341 -40.3319,-73.1602 -3.84199,-15.9993 -5.84416,-52.5072 -5.84416,-109.506l0 -213.33 -132.323 0 0 736.328z"
     id="path5" /></glyph>
   <glyph
   unicode="g"
   horiz-adv-x="660"
   id="glyph6"><path
     d="M459.993 531.331l132.846 0 0 -455.159c0,-89.8449 -18.1638,-156.006 -54.347,-198.178 -48.4848,-57.3232 -121.501,-86.0029 -219.156,-86.0029 -52.0022,0 -95.8333,6.51154 -131.331,19.5166 -35.4978,12.987 -65.5123,32.1609 -89.8449,57.3232 -24.4949,25.3427 -42.4964,56.0065 -54.1667,92.1717l147.006 0c13.0051,-15.0072 29.6717,-26.3348 50.1623,-34.0007 20.5087,-7.66595 44.8413,-11.5079 72.8355,-11.5079 35.8405,0 64.5022,5.50144 86.3276,16.6667 21.8434,11.0029 37.1753,25.3427 46.176,43.0014 9.00072,17.4964 13.4921,47.8355 13.4921,90.8369 -23.4848,-23.5029 -47.9978,-40.3319 -73.8276,-50.6674 -25.6674,-10.1732 -54.8341,-15.3319 -87.3377,-15.3319 -71.3203,0 -131.494,25.6674 -180.664,77.1645 -49.1703,51.3348 -73.6652,116.504 -73.6652,195.328 0,84.3434 26.0101,152.002 77.9942,203.175 47.3485,46.158 103.499,69.3362 169.012,69.3362 30.6638,0 59.4877,-5.66378 86.6703,-17.0094 27.1645,-11.1652 54.4913,-29.6537 81.8182,-55.3211l0 58.658zm-138.167 -111.003c-41.9913,0 -76.6595,-13.9971 -103.986,-42.1537 -27.3449,-28.1746 -40.9993,-63.5101 -40.9993,-106.169 0,-44.3362 13.9971,-80.6638 41.9913,-108.838 27.8319,-28.3369 63.0051,-42.4964 105.339,-42.4964 41.324,0 75.5051,13.8348 102.327,41.5043 26.8398,27.6515 40.3319,63.8167 40.3319,108.82 0,44.3362 -13.4921,80.1768 -40.4942,107.846 -27.0022,27.6515 -61.8326,41.4863 -104.509,41.4863z"
     id="path6" /></glyph>
   <glyph
   unicode="l"
   horiz-adv-x="239"
   id="glyph7"><path
     d="M53.1746 736.328l133.333 0 0 -736.328 -133.333 0 0 736.328z"
     id="path7" /></glyph>
   <glyph
   unicode="d"
   horiz-adv-x="660"
   id="glyph8"><path
     d="M459.993 736.328l132.846 0 0 -736.328 -132.846 0 0 56.1688c-25.9921,-24.8377 -52.1645,-42.4964 -78.3189,-53.4993 -26.3348,-10.8405 -54.6717,-16.342 -85.3355,-16.342 -68.6688,0 -128.012,26.6775 -178.175,79.8341 -50.1623,53.1746 -75.1623,119.336 -75.1623,198.503 0,81.9986 24.1703,149.17 72.6732,201.677 48.4848,52.3268 107.486,78.6616 176.822,78.6616 31.8362,0 61.8326,-6.16883 89.8449,-18.1638 27.9942,-12.013 53.824,-30.1768 77.6515,-54.1667l0 263.654zm-140.152 -314.502c-41.342,0 -75.6674,-14.4841 -103.012,-43.6508 -27.3268,-29.1667 -40.9993,-66.5043 -40.9993,-112.013 0,-45.9957 13.8348,-83.658 41.6667,-113.33 27.8319,-29.6717 62.1753,-44.4986 102.832,-44.4986 42.0094,0 76.8398,14.6645 104.509,43.8312 27.6696,29.0043 41.5043,67.1717 41.5043,114.502 0,46.158 -13.8348,83.658 -41.5043,112.175 -27.6696,28.6616 -62.6623,42.9834 -104.996,42.9834z"
     id="path8" /></glyph>
   <glyph
   unicode="i"
   horiz-adv-x="239"
   id="glyph9"><path
     d="M119.661 750c23.3405,0 43.5065,-8.49567 60.3355,-25.3247 16.6667,-17.0094 25,-37.5 25,-61.5079 0,-23.8276 -8.171,-44.1739 -24.8377,-60.8405 -16.6667,-16.829 -36.4899,-25.1623 -59.4877,-25.1623 -23.8456,0 -44.1739,8.49567 -60.8405,25.6674 -16.829,17.0094 -25.1623,37.8427 -25.1623,62.1753 0,23.4848 8.33333,43.4885 24.8377,60.1551 16.6667,16.5043 36.6522,24.8377 60.1551,24.8377zm-66.9913 -218.669l133.838 0 0 -531.331 -133.838 0 0 531.331z"
     id="path9" /></glyph>
   <glyph
   unicode="f"
   horiz-adv-x="279"
   id="glyph10"><path
     d="M3.84199 531.331l47.4928 0c0.324675,69.4986 1.33478,110.841 3.33694,123.503 3.66162,29.329 15.8369,52.5072 36.8326,69.4986 20.9957,17.1717 50.8297,25.6674 89.1595,25.6674 27.6696,0 59.0007,-6.33117 93.6688,-18.9935l0 -101.677c-19.1739,5.66378 -34.8304,8.33333 -47.3304,8.33333 -15.4942,0 -27.0022,-3.15657 -34.1631,-9.66811 -5.17677,-4.99639 -7.84632,-14.9892 -7.84632,-30.3211l-0.487013 -66.342 84.4877 0 0 -113.33 -84.4877 0 0 -418.001 -133.171 0 0 418.001 -47.4928 0 0 113.33z"
     id="path10" /></glyph>
   <glyph
   unicode="m"
   horiz-adv-x="940"
   id="glyph11"><path
     d="M66.342 531.331l133.82 0 0 -61.1652c22.8355,25.1623 48.1782,43.8312 76.0101,56.1688 27.8319,12.3377 58.153,18.6688 90.9993,18.6688 33.153,0 63.1674,-8.171 89.8268,-24.4949 26.6595,-16.342 48.1602,-40.0072 64.5022,-71.3384 21.158,31.3312 47.1681,54.9964 77.8319,71.3384 30.8261,16.324 64.3398,24.4949 100.83,24.4949 37.8427,0 70.9957,-8.83838 99.6753,-26.4971 28.6616,-17.5144 49.1703,-40.5123 61.6703,-68.8312 12.6623,-28.3369 18.8312,-74.3506 18.8312,-138.167l0 -311.508 -134.181 0 0 269.499c0,60.3355 -7.48557,101.01 -22.4928,122.33 -15.0072,21.3384 -37.5,31.9986 -67.3341,31.9986 -22.8355,0 -43.3261,-6.49351 -61.3276,-19.4986 -18.1638,-12.987 -31.5115,-30.9885 -40.3319,-54.0043 -8.83838,-22.9978 -13.1674,-59.8304 -13.1674,-110.66l0 -239.665 -134.343 0 0 257.341c0,47.4928 -3.49928,81.9986 -10.4978,103.319 -6.99856,21.3384 -17.4964,37.1753 -31.4935,47.5108 -13.9971,10.4978 -30.8442,15.6566 -50.6674,15.6566 -22.1681,0 -42.3341,-6.65584 -60.3355,-19.8232 -18.0014,-13.1674 -31.6739,-31.6739 -40.4942,-55.3391 -9.00072,-23.8276 -13.5101,-61.1652 -13.5101,-112.338l0 -236.328 -133.82 0 0 531.331z"
     id="path11" /></glyph>
   <glyph
   unicode="n"
   horiz-adv-x="600"
   id="glyph12"><path
     d="M67.3341 531.331l132.828 0 0 -54.329c30.3391,25.5051 57.6659,43.1638 82.3413,52.9942 24.4949,10.0108 49.6573,15.0072 75.3247,15.0072 52.8319,0 97.5108,-18.5065 134.343,-55.3391 30.9885,-31.1688 46.3203,-77.3268 46.3203,-138.672l0 -350.992 -131.818 0 0 232.828c0,63.5101 -2.83189,105.664 -8.51371,126.497 -5.66378,20.8333 -15.6566,36.6703 -29.8341,47.6732 -14.1595,10.8405 -31.4935,16.342 -52.3268,16.342 -27.1645,0 -50.3247,-9.00072 -69.6609,-27.1825 -19.3362,-17.9834 -32.8463,-42.9834 -40.3319,-74.8196 -3.84199,-16.6667 -5.84416,-52.6696 -5.84416,-108.009l0 -213.33 -132.828 0 0 531.331z"
     id="path12" /></glyph>
   <glyph
   unicode="e"
   horiz-adv-x="640"
   id="glyph13"><path
     d="M599.675 227.002l-428.337 0c6.16883,-37.6623 22.8355,-67.6768 49.6573,-90.0072 26.8398,-22.3304 61.0029,-33.4957 102.67,-33.4957 49.8377,0 92.6768,17.4964 128.499,52.3268l112.338 -52.8319c-27.9942,-39.6645 -61.5079,-68.9935 -100.667,-88.1674 -38.9971,-18.9935 -85.3355,-28.4993 -139.159,-28.4993 -83.3333,0 -151.172,26.3348 -203.517,78.842 -52.4892,52.6696 -78.6616,118.488 -78.6616,197.493 0,81.1688 26.1724,148.341 78.3369,202.002 52.3268,53.4993 117.839,80.3391 196.501,80.3391 83.658,0 151.659,-26.8398 204.167,-80.3391 52.3268,-53.6616 78.6616,-124.333 78.6616,-212.157l-0.487013 -25.5051zm-133.838 104.996c-8.83838,29.6717 -26.1724,53.6616 -52.0022,72.3304 -25.8297,18.5065 -56.0065,27.8319 -90.1696,27.8319 -36.9949,0 -69.6609,-10.4978 -97.6732,-31.3312 -17.4964,-13.0051 -33.8203,-36.0029 -48.8276,-68.8312l288.672 0z"
     id="path13" /></glyph>
   <glyph
   unicode="c"
   horiz-adv-x="640"
   id="glyph14"><path
     d="M587.338 423.828l-110.841 -61.0029c-20.8333,21.8434 -41.324,36.8506 -61.6703,45.3463 -20.3283,8.49567 -44.1558,12.6623 -71.5007,12.6623 -49.8196,0 -90.1515,-14.8268 -120.996,-44.6609 -30.6638,-29.6717 -45.9957,-67.8391 -45.9957,-114.502 0,-45.1659 14.6645,-82.1789 44.3362,-110.841 29.6537,-28.6616 68.4885,-43.0014 116.667,-43.0014 59.6681,0 105.988,20.5087 139.159,61.1652l104.996 -71.8254c-56.9986,-73.8276 -137.32,-110.841 -241.162,-110.841 -93.5065,0 -166.667,27.6696 -219.499,83.0087 -52.8319,55.3391 -79.329,120.166 -79.329,194.336 0,51.4971 12.8247,98.8276 38.4921,142.154 25.8297,43.1818 61.6703,77.1825 107.666,102.002 46.176,24.6753 97.6732,37.1753 154.672,37.1753 52.6696,0 100,-10.4978 141.991,-31.5115 42.0094,-20.9957 76.3348,-50.9921 103.012,-89.6645z"
     id="path14" /></glyph>
   <glyph
   unicode="p"
   horiz-adv-x="660"
   id="glyph15"><path
     d="M199.675 531.331l0 -58.658c24.1522,23.9899 50.1623,42.1537 78.1566,54.1667 27.9942,11.9949 58.0087,18.1638 89.8268,18.1638 69.3362,0 128.337,-26.3348 176.84,-78.6616 48.5029,-52.5072 72.6732,-119.679 72.6732,-201.677 0,-79.1667 -25,-145.328 -75.1804,-198.503 -50.1623,-53.1566 -109.488,-79.8341 -178.157,-79.8341 -30.6638,0 -59.1631,5.50144 -85.4978,16.342 -26.3348,11.0029 -52.5072,28.6616 -78.6616,53.4993l0 -250.505 -132.341 0 0 725.667 132.341 0zm140.152 -109.506c-41.9913,0 -76.8218,-14.3218 -104.491,-42.9834 -27.6696,-28.5173 -41.5043,-66.0173 -41.5043,-112.175 0,-47.3304 13.8348,-85.4978 41.5043,-114.502 27.6696,-29.1667 62.5,-43.8312 104.491,-43.8312 40.6746,0 75,14.8268 102.832,44.4986 27.8499,29.6717 41.6667,67.3341 41.6667,113.33 0,45.5087 -13.6544,82.8463 -40.9993,112.013 -27.3268,29.1667 -61.8326,43.6508 -103.499,43.6508z"
     id="path15" /></glyph>
   <glyph
   unicode="z"
   horiz-adv-x="459"
   id="glyph16"><path
     d="M44.4986 531.331l407.666 0 -239.34 -418.506 225.667 0 0 -112.825 -430.664 0 240.17 418.506 -203.499 0 0 112.825z"
     id="path16" /></glyph>
   <glyph
   unicode="s"
   horiz-adv-x="440"
   id="glyph17"><path
     d="M392.496 456.999l-82.5036 -82.5036c-33.4957,33.171 -63.8348,49.8377 -91.1616,49.8377 -14.9892,0 -26.8398,-3.1746 -35.1732,-9.50577 -8.49567,-6.33117 -12.8247,-14.3218 -12.8247,-23.6652 0,-7.16089 2.83189,-13.8348 8.171,-19.8232 5.32107,-6.00649 18.6688,-14.1775 39.8268,-24.6753l48.6652 -24.3326c51.4971,-25.5051 86.8326,-51.3348 106.006,-77.6696 19.1558,-26.3348 28.824,-57.3232 28.824,-92.8211 0,-47.1681 -17.3341,-86.5079 -52.0022,-118.182 -34.6501,-31.4935 -81.1508,-47.3304 -139.322,-47.3304 -77.5072,0 -139.34,30.3391 -185.678,90.8369l82.1789 89.3398c15.4942,-18.1638 33.8384,-33.0087 54.8341,-44.1739 20.9957,-11.1652 39.6645,-16.829 55.9885,-16.829 17.5144,0 31.6739,4.16667 42.3341,12.6623 10.8405,8.49567 16.1797,18.1638 16.1797,29.329 0,20.5087 -19.3362,40.5123 -58.0087,60.0108l-45.0036 22.4928c-86.0029,43.3442 -128.824,97.5108 -128.824,162.5 0,42.0094 16.1616,78.0123 48.5029,107.666 32.3232,29.8341 73.8276,44.8413 124.333,44.8413 34.4877,0 66.829,-7.66595 97.3304,-22.8355 30.5014,-15.1696 56.3312,-36.8326 77.3268,-65.1696z"
     id="path17" /></glyph>
   <glyph
   unicode="u"
   horiz-adv-x="600"
   id="glyph18"><path
     d="M66.829 531.331l134.83 0 0 -256.006c0,-49.6573 3.33694,-84.3254 10.1732,-103.662 6.99856,-19.3362 17.8391,-34.4877 33.0087,-45.1659 15.1515,-10.8225 33.8203,-16.1616 55.9885,-16.1616 22.1681,0 40.8369,5.33911 56.3312,15.8369 15.5123,10.6602 27.0022,26.1544 34.5058,46.6631 5.50144,15.3319 8.171,47.9978 8.171,98.1602l0 260.335 133.82 0 0 -225.162c0,-92.8391 -7.32323,-156.331 -21.9877,-190.494 -17.8391,-41.6667 -44.1739,-73.6833 -79.0043,-95.8333 -34.8304,-22.3485 -79.1667,-33.5137 -132.828,-33.5137 -58.3333,0 -105.339,13.0051 -141.342,38.9971 -36.0029,26.1724 -61.3276,62.3377 -75.9921,109.001 -10.3355,32.1789 -15.6746,90.8369 -15.6746,175.667l0 221.338z"
     id="path18" /></glyph>
   <glyph
   unicode="r"
   horiz-adv-x="319"
   id="glyph19"><path
     d="M36.1652 531.331l114.159 0 0 -66.9913c12.5,26.3348 28.842,46.3203 49.3506,59.9928 20.4906,13.8348 42.9834,20.671 67.4964,20.671 17.1537,0 35.1551,-4.67172 54.1667,-13.6724l-41.5043 -114.827c-15.6746,7.82828 -28.4993,11.6703 -38.6724,11.6703 -20.4906,0 -37.8247,-12.6804 -52.0022,-38.0051 -14.1595,-25.5051 -21.158,-75.1623 -21.158,-149.495l0.505051 -25.8478 0 -214.827 -132.341 0 0 531.331z"
     id="path19" /></glyph>
   <glyph
   unicode="t"
   horiz-adv-x="299"
   id="glyph20"><path
     d="M83.4957 727.002l132.846 0 0 -195.671 78.9863 0 0 -114.827 -78.9863 0 0 -416.504 -132.846 0 0 416.504 -68.3261 0 0 114.827 68.3261 0 0 195.671z"
     id="path20" /></glyph>
   <glyph
   unicode="ä"
   horiz-adv-x="660"
   id="glyph21"><path
     d="M459.993 531.331l132.846 0 0 -531.331 -132.846 0 0 56.1688c-25.9921,-24.8377 -52.1645,-42.4964 -78.3189,-53.4993 -26.3348,-10.8405 -54.6717,-16.342 -85.3355,-16.342 -68.6688,0 -128.012,26.6775 -178.175,79.8341 -50.1623,53.1746 -75.1623,119.336 -75.1623,198.503 0,81.9986 24.1703,149.17 72.6732,201.677 48.4848,52.3268 107.486,78.6616 176.822,78.6616 31.8362,0 61.8326,-6.16883 89.8449,-18.1638 27.9942,-12.013 53.824,-30.1768 77.6515,-54.1667l0 58.658zm-140.152 -109.506c-41.342,0 -75.6674,-14.4841 -103.012,-43.6508 -27.3268,-29.1667 -40.9993,-66.5043 -40.9993,-112.013 0,-45.9957 13.8348,-83.658 41.6667,-113.33 27.8319,-29.6717 62.1753,-44.4986 102.832,-44.4986 42.0094,0 76.8398,14.6645 104.509,43.8312 27.6696,29.0043 41.5043,67.1717 41.5043,114.502 0,46.158 -13.8348,83.658 -41.5043,112.175 -27.6696,28.6616 -62.6623,42.9834 -104.996,42.9834zm-98.1782 346.176c19.4986,0 36.0029,-6.83622 49.6753,-20.5087 13.6544,-13.6544 20.4906,-29.9964 20.4906,-49.3326 0,-19.4986 -6.83622,-35.9848 -20.4906,-49.6573 -13.6724,-13.6724 -30.1768,-20.5087 -49.6753,-20.5087 -19.3362,0 -35.6602,6.83622 -49.3326,20.5087 -13.6724,13.6724 -20.4906,30.1587 -20.4906,49.6573 0,19.3362 6.81818,35.6782 20.4906,49.3326 13.6724,13.6724 29.9964,20.5087 49.3326,20.5087zm216.162 0c19.6789,0 36.1833,-6.83622 49.8377,-20.5087 13.6724,-13.6544 20.5087,-29.9964 20.5087,-49.3326 0,-19.4986 -6.83622,-35.9848 -20.5087,-49.6573 -13.6544,-13.6724 -30.1587,-20.5087 -49.8377,-20.5087 -19.1558,0 -35.4978,6.83622 -49.1522,20.5087 -13.6724,13.6724 -20.5087,30.1587 -20.5087,49.6573 0,19.3362 6.83622,35.6782 20.5087,49.3326 13.6544,13.6724 29.9964,20.5087 49.1522,20.5087z"
     id="path21" /></glyph>
   <glyph
   unicode="ö"
   horiz-adv-x="640"
   id="glyph22"><path
     d="M316.829 545.004c50.1623,0 97.3304,-12.6623 141.504,-37.6623 43.9935,-25 78.4993,-59.1811 103.175,-102.002 24.8196,-43.0014 37.1573,-89.3398 37.1573,-139.177 0,-50.1623 -12.5,-96.9877 -37.3377,-140.657 -25,-43.6688 -58.8203,-77.6696 -101.822,-102.345 -43.0014,-24.4949 -90.3319,-36.8326 -142.172,-36.8326 -76.1724,0 -141.162,27.1645 -195.004,81.3312 -53.824,54.1667 -80.8261,120.004 -80.8261,197.511 0,82.9906 30.5014,152.165 91.324,207.504 53.3369,48.1602 114.665,72.3304 184.001,72.3304zm2.00216 -125.505c-41.324,0 -75.8297,-14.5022 -103.337,-43.3261 -27.4892,-28.842 -41.1616,-65.6746 -41.1616,-110.498 0,-46.3384 13.4921,-83.676 40.8369,-112.338 27.1645,-28.6616 61.4899,-43.0014 103.157,-43.0014 41.6667,0 76.3348,14.5022 104.004,43.5065 27.6696,28.9863 41.5043,66.1616 41.5043,111.833 0,45.4906 -13.5101,82.4856 -40.6746,110.985 -27.3268,28.4993 -61.9949,42.8391 -104.329,42.8391zm-107.323 348.503c19.4986,0 35.9848,-6.83622 49.6573,-20.5087 13.6724,-13.6544 20.5087,-29.9964 20.5087,-49.3326 0,-19.4986 -6.83622,-35.9848 -20.5087,-49.6573 -13.6724,-13.6724 -30.1587,-20.5087 -49.6573,-20.5087 -19.3362,0 -35.6782,6.83622 -49.3326,20.5087 -13.6724,13.6724 -20.5087,30.1587 -20.5087,49.6573 0,19.3362 6.83622,35.6782 20.5087,49.3326 13.6544,13.6724 29.9964,20.5087 49.3326,20.5087zm216.162 0c19.6609,0 36.1652,-6.83622 49.8377,-20.5087 13.6544,-13.6544 20.4906,-29.9964 20.4906,-49.3326 0,-19.4986 -6.83622,-35.9848 -20.4906,-49.6573 -13.6724,-13.6724 -30.1768,-20.5087 -49.8377,-20.5087 -19.1739,0 -35.4978,6.83622 -49.1703,20.5087 -13.6724,13.6724 -20.4906,30.1587 -20.4906,49.6573 0,19.3362 6.81818,35.6782 20.4906,49.3326 13.6724,13.6724 29.9964,20.5087 49.1703,20.5087z"
     id="path22" /></glyph>
   <glyph
   unicode="ü"
   horiz-adv-x="600"
   id="glyph23"><path
     d="M66.829 531.331l134.83 0 0 -256.006c0,-49.6573 3.33694,-84.3254 10.1732,-103.662 6.99856,-19.3362 17.8391,-34.4877 33.0087,-45.1659 15.1515,-10.8225 33.8203,-16.1616 55.9885,-16.1616 22.1681,0 40.8369,5.33911 56.3312,15.8369 15.5123,10.6602 27.0022,26.1544 34.5058,46.6631 5.50144,15.3319 8.171,47.9978 8.171,98.1602l0 260.335 133.82 0 0 -225.162c0,-92.8391 -7.32323,-156.331 -21.9877,-190.494 -17.8391,-41.6667 -44.1739,-73.6833 -79.0043,-95.8333 -34.8304,-22.3485 -79.1667,-33.5137 -132.828,-33.5137 -58.3333,0 -105.339,13.0051 -141.342,38.9971 -36.0029,26.1724 -61.3276,62.3377 -75.9921,109.001 -10.3355,32.1789 -15.6746,90.8369 -15.6746,175.667l0 221.338zm125.162 236.67c19.5166,0 36.0029,-6.83622 49.6753,-20.5087 13.6724,-13.6544 20.5087,-29.9964 20.5087,-49.3326 0,-19.4986 -6.83622,-35.9848 -20.5087,-49.6573 -13.6724,-13.6724 -30.1587,-20.5087 -49.6753,-20.5087 -19.3182,0 -35.6602,6.83622 -49.3326,20.5087 -13.6544,13.6724 -20.4906,30.1587 -20.4906,49.6573 0,19.3362 6.83622,35.6782 20.4906,49.3326 13.6724,13.6724 30.0144,20.5087 49.3326,20.5087zm216.18 0c19.6609,0 36.1652,-6.83622 49.8377,-20.5087 13.6544,-13.6544 20.4906,-29.9964 20.4906,-49.3326 0,-19.4986 -6.83622,-35.9848 -20.4906,-49.6573 -13.6724,-13.6724 -30.1768,-20.5087 -49.8377,-20.5087 -19.1739,0 -35.4978,6.83622 -49.1703,20.5087 -13.6724,13.6724 -20.5087,30.1587 -20.5087,49.6573 0,19.3362 6.83622,35.6782 20.5087,49.3326 13.6724,13.6724 29.9964,20.5087 49.1703,20.5087z"
     id="path23" /></glyph>
  </font>
</defs>
</svg>
